#2342  od ingbrzy
 před 8 lety
MIUIv5 3.5.10 CHANGELOG

MIUI ROM 3.5.10 Update Highlights (Video is uploading, will be posted soon)
1. Slide down on Notes icon to create a new note
2. When setting an alarm, remaining time before alarm is displayed 


[Messaging]
Fix - In some cases when network becomes unavailable, it still sends as network message instead of a normal text

[Lock screen , status bar, notification bar]
Optimization - Improved the touch slide fluency of lockscreen

[Desktop]
Optimization - "Global search" thumbnail style in editing mode

[Camera]
Fix - When entering camera from contacts, front camera mirror image function does not work
Fix - When enabling camera from other programs, the preview and image of moving objects is inconsistent

[Gallery]
Optimization - Gallery blacklist
Fix - Unsorted picture can still be moved to the photo album
Fix - In some cases, thumbnails cannot be displayed

[Music]
Fix - Online music fails to load from cache or flash back in some cases
Fix - Clicking on desktop widget cannot enter music player

[Sound Recorder]
New - “Recording silent mode” switch

[Calendar]
Fix - In some cases the calendar view switch may cause selected date to change

[Notes]
Optimization - Notes reminds will display notification in status bar area
Fix - In some cases the notes renaming notes folder will lead to flash back
New - Slide down on Notes icon to create a new note

[Alarm clock]
New - When setting an alarm, remaining time before alarm is displayed 
Optimization - System default alarm ring interface displays weather
Optimization - Adjust the alarm interface for Samsung I9100

[Xiaomi account]
Fix - In some cases Cloud service activation is unsuccessful

Thanks to miui-uk for English translation.

Pre zobrazenie URL sa musíte prihlásiť
 #2349  od mastnacek
 před 8 lety
Co to mas za pekny poznamky? Mam 3.5.3 na defy a kdyz si dam widget na plochu tak to nevypada jak u tebe.
 #2351  od ingbrzy
 před 8 lety
nieje to widget ale aktivna ikona... budes mat v 3.5.10.. :)

Pre zobrazenie URL sa musíte prihlásiť
Naposledy upravil(a) ingbrzy dne 10 Kvě 2013, 11:02, celkem upraveno 1 x.
 #2356  od Babda
 před 8 lety
A ty aktivni okonky jdou aji na sgs2

GT-I9100 Babda Tapatalk2
 #2357  od ingbrzy
 před 8 lety
Na vsetky telefony s MIUIv5...
 #2358  od nerd
 před 8 lety
je 3.5.10 pre xiaomi android 4.2.2? :)
Obrázek

1. Users of Xiaomi MI2/2S/2A / MI 1/1S / Galaxy Note II / Galaxy S3/ HTC ONE X/Galaxy S2 can get the OTA update.
2. MIUI V5 for Galaxy Nexus is being tested by MIUI beta team, only beta testers can get the OTA update.
 #2360  od ingbrzy
 před 8 lety
4.1.1
 #2361  od jenicekk
 před 8 lety
oops, mystifikace omlouvam se :)
 #2362  od pizuu
 před 8 lety
Uz som sa zľakol, ze len ja mam 4.1.1 ;)

Xiaomi Mi2
 #2368  od mar72
 před 8 lety
EN verze pro SIII je už ke stažení Pre zobrazenie URL sa musíte prihlásiť
 #2369  od Honzys1983
 před 8 lety
Tak mi GooManager nahlásil novou verzi ROM ke stažení. To bude asi ještě EN verze, že jo?
 #2372  od ingbrzy
 před 8 lety
Ano este EN...

CZ a SK az vecer...  :-)
 #2374  od kokbulik
 před 8 lety
Ingbrzy je už v téhle verzi opravené 1080p video na MI2S? Protože v 3.5.3 mělo jen 22FPS.
 #2378  od ingbrzy
 před 8 lety
neviem o tom, ze tam bola tato chyba... takze uvidis vecer....
 #2417  od kokbulik
 před 8 lety
Pořád to samé. Myslím že by to chtělo nahlásit jako chybu ale nevím jak.
Obrázek
 #2418  od ingbrzy
 před 8 lety
ak ti tam chybaju tie 3fps, reportuj to priamo cinanom Pre zobrazenie URL sa musíte prihlásiť


tu je info z 1080p na Mi2
Kód: Pre zobrazenie URL sa musíte prihlásiť
General
Complete name :
/home/ingbrzy/Desktop/VID_20130511_115919.mp4
Format :
MPEG-4
Format profile :
Base Media
Codec ID :
isom
File size :
15.4 MiB
Duration :
7s 894ms
Overall bit rate :
16.4 Mbps
Video
ID :
1
Format :
AVC
Format/Info :
Advanced Video Codec
Format profile :
[email protected]
Format settings, CABAC :
No
Format settings, ReFrames :
1 frame
Codec ID :
avc1
Codec ID/Info :
Advanced Video Coding
Duration :
7s 602ms
Source duration :
7s 626ms
Bit rate :
16.9 Mbps
Width :
1 920 pixels
Height :
1 088 pixels
Display aspect ratio :
16:9
Frame rate mode :
Variable
Frame rate :
20.849 fps
Minimum frame rate :
12.491 fps
Maximum frame rate :
25.112 fps
Color space :
YUV
Chroma subsampling :
4:2:0
Bit depth :
8 bits
Scan type :
Progressive
Bits/(Pixel*Frame) :
0.388
Stream size :
15.3 MiB (99%)
Source stream size :
15.3 MiB (99%)
Title :
VideoHandle
Language :
English
mdhd_Duration :
7602
Audio
ID :
2
Format :
AAC
Format/Info :
Advanced Audio Codec
Format profile :
LC
Codec ID :
40
Duration :
7s 894ms
Bit rate mode :
Constant
Bit rate :
96.0 Kbps
Channel(s) :
2 channels
Channel positions :
Front: L R
Sampling rate :
48.0 KHz
Compression mode :
Lossy
Stream size :
92.8 KiB (1%)
Title :
SoundHandle
Language :
English
video je plynule a neriesim.. fps sa menia v zavislosti na kodeku, pohybu, sceny atd...
1080p aj tak nepouzivam... prilis velke subory... max 720p...
Naposledy upravil(a) ingbrzy dne 11 Kvě 2013, 12:29, celkem upraveno 1 x.
 #2419  od nachti
 před 8 lety
Moc hezké video u changelogu. Bohužel, nevím proč mi nefunguje ani animace kalendáře (překlápění ikony), ani ikona app poznámky (to že se jako na videu chová jako widget), ani nový vzhled přehrávače a konečně mi nefunguje ani ikona hodin . Nevíte někdo prosím co mám špatně?
 #2420  od ingbrzy
 před 8 lety
lebo si si nedal rozsirene aktivne ikony pre MIUIv5 Pre zobrazenie URL sa musíte prihlásiť
 #2425  od nachti
 před 8 lety
No jo a hned je to hezčí  :). Diky. Jenom ještě ten přehrávač nemám jako na videu. Průběh skladby je proužek a ne kroužek kolem tl. Play.
 #2426  od ingbrzy
 před 8 lety
potiahni ikonu smerom nadol alebo nahor... :)
 #2436  od nachti
 před 8 lety
Dost dobrý...  :). Diky

Pokud chcete poděkovat a finančně podpořit naši práci na překladech MIUI do CZ SK jazyka. Děkujeme!

Kdo je online

Ve fóru je celkem 0 uživatelů :: 0 registrovaných, 0 skrytých a 0 hostů (založeno na uživatelích aktivních během posledních 5 minut)
Nejvíce zde současně bylo přítomno 485 uživatelů dne 09 Kvě 2021, 17:10

Uživatelé prohlížející si toto fórum: Žádní registrovaní uživatelé a 0 hostů

MIUI KOMUNITA

Czech Slovak United-Kingdom Poland Russia Ukraine Italy Germany Spain Indonesia India Switzerland Bulgaria Brazil Portugal Slovenia France Greece China Turkey Hungary Israel Australia Thailand Bangladesh Saudi-Arabia Croatia Norway

O nás

MIUI CZECH & SLOVAK je oficiální fanpage MI.com pro Českou a Slovenskou republiku. Staráme se o překlady MIUI ROM do CZ a SK nejen pro všechny Xiaomi zařízení. Kontakt contact(at)miuios.cz

Naše překlady jsou chráněné licencí Creative Commons 3.0

cc by nc nd

Uvedená práce (dílo) podléhá licenci Creative Commons Uveďte autora-Neužívejte dílo komerčně-Nezasahujte do díla 3.0 Česko

pecat